#TITLE:Kissy Kissy;
#SUBTITLE:Dead Master;
#ARTIST:Smile;
#TITLETRANSLIT:;
#SUBTITLETRANSLIT:;
#ARTISTTRANSLIT:;
#CREDIT:;
#BANNER:bn.jpg;
#BACKGROUND:bg.jpg;
#LYRICSPATH:;
#CDTITLE:cd.png;
#MUSIC:kissy kissy.ogg;
#OFFSET:-1.254;
#SAMPLESTART:44.501;
#SAMPLELENGTH:12.000;
#SELECTABLE:YES;
#BPMS:0.000=138.737;
#STOPS:;
#BGCHANGES:;
// cache tags:
#FIRSTBEAT:1.750;
#LASTBEAT:278.750;
#SONGFILENAME:Songs/Super Dancer Online/Smile (Kissy Kissy)/kissy kissy.sm;
#HASMUSIC:1;
#HASBANNER:1;
#MUSICLENGTH:123.669;
// end cache tags

//---------------dance-single - ----------------
#NOTES:
     dance-single:
     :
     Hard:
     1:
     0.928,1.000,1.000,0.089,1.000,571.000,189.000,11.000,0.000,30.000:
0000
0000
0000
0000
0000
0000
0000
2000
0000
0000
0000
0000
0000
0000
0000
0000
,
0000
3000
0000
0000
0000
0000
0000
0020
0000
0000
0000
0000
0000
0000
0000
0000
,
0000
0000
0000
0000
,
0030
0000
0000
0000
0000
0000
0000
0100
0000
0010
0000
0010
0000
0000
1000
0000
,
0001
0000
0100
0000
0010
0000
1000
0000
0001
0000
0100
0000
0010
0000
1000
0001
,
0000
0000
0100
0010
0000
1000
0000
0001
0000
0000
0100
0010
0000
0000
1000
0000
,
0001
0000
0100
0000
0010
0000
1000
0000
0001
0000
0100
0010
0000
0000
0001
0000
,
0000
0000
0000
0000
0000
0001
0000
0010
0000
0100
0000
0010
0000
1000
0000
0000
,
0001
0100
0010
1000
0001
0100
0010
0100
,
0010
0000
1000
0000
0001
0000
0000
0100
0010
0000
0100
0000
0010
0000
1000
0000
,
0001
0000
0100
0000
0010
0000
0100
0000
0001
0000
1000
0010
0000
0000
0010
0000
,
0000
0101
0000
0101
0000
0000
0010
1000
0000
0001
0100
0010
0000
0000
0101
0000
,
0001
0000
1001
0000
0000
0001
0001
0000
0100
0010
0000
0010
0000
1010
0000
0010
,
0100
0001
0000
0101
0000
0010
0010
0000
0000
1010
0000
0010
0100
0000
0110
0000
,
0010
0000
0010
0100
0000
0010
0010
1000
0000
0001
0001
0000
0110
0000
0010
0000
,
0010
0000
0010
0000
0010
0000
0101
0000
0001
1000
0001
0000
0001
0100
0000
0010
,
0000
0010
0000
0101
0000
0001
0100
0000
0010
0000
0010
0000
0001
0001
0000
0001
,
0000
0110
0000
1000
0010
0000
0110
0000
0000
1000
1000
0010
0000
1010
0000
0000
,
0000
1000
0010
0100
0010
0100
0010
1000
0000
0010
0100
0100
0000
0100
0000
0100
,
0000
0010
0010
0000
0000
1001
0000
0110
0000
0001
0000
0001
0000
0010
0000
0100
,
0010
0100
0000
0101
0000
1010
0000
0001
0000
0110
0000
1001
0000
0010
0000
0101
,
0000
0010
1001
0000
0000
0110
0000
1001
0000
0110
0000
0110
0000
1001
0000
0110
,
0000
1101
0000
0110
0000
0100
0000
1001
0000
0110
0000
0101
0000
0110
0000
1001
,
0000
0101
0000
0101
0000
0101
0000
1010
0000
1010
0000
0101
0000
0110
0000
1001
,
0000
0110
0000
0101
1000
1010
0000
0101
0000
1001
0000
0110
0000
0000
0101
1001
,
0000
0010
0110
0000
1001
0000
0110
0000
0001
0100
0010
0100
0000
1001
0000
0010
,
0000
0000
0101
0000
0110
0000
0001
1000
0000
0110
0000
0101
0000
1001
0000
0000
,
0110
0000
0001
0000
0101
0000
0000
0110
0000
0000
0101
0010
0101
0010
1000
0010
,
1100
1001
0111
0111
1010
0110
0110
0111
,
0111
0010
1000
0000
1110
0000
1110
0000
0101
0000
0111
0000
0111
0000
1111
0000
,
1110
1110
1010
0101
0111
0111
1011
0110
,
0110
0110
0111
0111
1010
1110
0101
0111
,
0111
0000
1010
0000
1110
0000
1110
0000
1111
0000
0111
0000
0111
0000
0110
0001
,
0111
0000
0110
0001
0110
0000
0110
0000
0110
0000
1000
0001
1001
0000
1001
0000
,
0110
0000
0101
0000
1001
0000
0110
0000
0001
1000
0110
0000
0101
0000
0000
1010
,
0000
0110
0000
0001
0000
1001
0000
0000
0001
1000
0000
0001
0000
0001
1000
0010
,
0000
0010
0100
0010
0000
0110
0000
0001
0000
0001
1000
0010
0010
0000
0100
0010
,
0100
0010
0010
0000
1010
0000
0010
0100
0001
0000
0100
0001
0001
0000
0000
1001
,
0000
0001
1000
0000
1010
0000
0010
0010
0000
0100
0000
0100
0010
0000
0010
0100
,
0010
0000
0000
1010
0000
0010
1000
0000
0001
0001
0100
0000
0010
0100
0010
0000
,
1000
0000
0000
1010
0000
1000
1000
0010
0000
0010
0100
0000
0010
0010
0000
0100
,
0001
0001
0000
0000
0010
0010
0000
0100
0010
0000
0100
0010
0000
0110
0000
0001
,
0000
0001
0000
0100
0010
0010
0100
0000
0010
1000
0000
0110
0010
0000
0010
0000
,
0100
0100
0000
0100
0010
0010
0000
0000
0000
0101
0000
0110
0000
0010
0000
0010
,
0100
0001
0000
0001
1000
0000
0010
0000
0010
0000
0100
0010
0100
0010
0010
0000
,
0001
0000
0001
0000
0010
0000
0000
0000
0100
0010
0010
0100
0010
0000
0100
0010
,
0000
0110
0000
0010
0000
0100
0000
0010
0000
0010
0100
0010
0000
0110
0000
0001
,
0000
1000
0000
0010
0000
0010
0000
0000
0100
0010
0000
0010
0100
1000
0001
0000
,
0010
0000
0100
0010
0000
0010
0000
0100
0000
0001
0001
0100
0010
0000
1000
0000
,
0010
0010
0000
0100
0020
0000
0000
0030
0100
0010
0010
0000
0100
0010
0010
0000
,
0100
0001
0000
0001
1000
0010
0000
0010
0100
0000
0010
0010
0000
0100
0010
0000
,
1000
0000
0100
0100
0000
0110
1001
1010
,
0101
0000
1010
0000
0101
0000
0110
0000
1001
0000
0110
0000
0101
1000
0010
0000
,
0101
0000
1110
0000
0101
0000
1110
0000
0000
1001
0000
0110
0000
1001
0000
0110
,
0000
0001
0000
0110
0000
0101
0000
1000
0000
0110
0000
0010
0100
0000
1001
0000
,
0101
0020
0000
0000
0000
0000
0000
0000
0030
0100
0000
0101
0000
1001
0000
0000
,
0110
0001
1010
0110
1001
0110
1001
0110
,
1001
0110
0101
0101
1010
0101
0110
1001
,
0110
0000
1001
0000
0110
0000
0001
0000
1010
0100
0001
0100
0000
1110
0000
0010
,
0000
0010
0010
0000
0000
1001
0001
0000
0000
0010
0000
0001
0000
0000
1011
0000
,
0000
0000
0020
0000
0000
0000
0030
0000
0011
0000
1000
0100
0000
0010
0110
0000
,
1000
0000
0110
0000
0110
0000
0001
0010
1000
0000
0100
0000
0010
0000
0010
0100
,
0000
0010
0100
1000
0100
0000
0010
0100
0000
0000
0001
1000
0010
0100
0010
0100
,
0010
0000
2000
0000
0000
0000
0000
3010
0000
0010
0000
1100
0000
0100
0010
0110
,
0000
0001
0010
1100
0000
0000
0000
0110
0000
0100
0010
0000
0011
0100
1000
0100
,
0010
0000
0010
0100
0000
1001
0000
0001
0100
0000
0020
0000
0000
0030
2000
0000
,
0000
3001
0000
0001
0000
0100
0000
0010
0010
1000
0000
0100
0010
0000
0010
0200
,
0000
0000
0310
0010
0000
0000
0100
0020
0000
0000
0000
0000
0030
0000
0010
0000
,
0020
0000
0000
0000
,
0000
0000
0000
0000
0000
0000
0000
0000
0000
0000
0000
0030
0000
0000
0000
0000
;
